Technical InfoGroup(s): a.b.sounds.lossless
Date: 07-22-07
Size: 323.48 MB
Pars: 34.35 MB
Files: 1 other file, 7 par files, 1 m3u file
[fileslist] Hey Girl.LOG
Gruppo Sportivo - Hey Girl.vol29+25.PAR2
Gruppo Sportivo - Hey Girl.vol15+14.PAR2
Gruppo Sportivo - Hey Girl.vol07+08.PAR2
Gruppo Sportivo - Hey Girl.vol03+04.PAR2
Gruppo Sportivo - Hey Girl.vol01+02.PAR2
Gruppo Sportivo - Hey Girl.vol00+01.PAR2
Gruppo Sportivo - Hey Girl.par2
Gruppo Sportivo - Hey Girl.m3u
14 - Hey Girl - Bottom of the class.flac
13 - Hey Girl - The booby-trap boogie.flac
12 - Hey Girl - Real teeth are out.flac
11 - Hey Girl - Bernadette.flac
10 - Hey Girl - Dreamin'.flac
09 - Hey Girl - Blah blah magazines.flac
08 - Hey Girl - Superman.flac
07 - Hey Girl - I shot my manager.flac
06 - Hey Girl - Tokyo.flac
05 - Hey Girl - Beep beep love.flac
04 - Hey Girl - Sleeping bag.flac
03 - Hey Girl - Rock ' roll.flac
02 - Hey Girl - Disco really made it.flac
01 - Hey Girl - Hey girl.flac[/fileslist]


nfo
Code:
EAC extraction logfile from 22. July 2007, 21:40 for CD
Gruppo Sportivo / Hey Girl

Used drive  : HL-DT-STDVDRAM GSA-5120D   Adapter: 1  ID: 1
Read mode   : Secure with NO C2, accurate stream, NO disable cache
Read offset correction : 667
Overread into Lead-In and Lead-Out : No

Used output format : C:\Program Files\FLAC\flac.exe   (User Defined Encoder)
                     128 kBit/s
                     Additional command line options : -T "artist=%a" -T "title=%t" -T "album=%g" -T "date=%y" -T "tracknumber=%n" -T "genre=%m" %s -0 --verify

Other options      : 
    Fill up missing offset samples with silence : Yes
    Delete leading and trailing silent blocks : No
    Installed external ASPI interface


Track  1
     Filename C:\My Music\Gruppo Sportivo - Hey Girl\01 - Hey Girl - Hey girl.wav

     Pre-gap length  0:00:02.00

     Peak level 83.9 %
     Track quality 99.7 %
     Test CRC 5C09E565
     Copy CRC 5C09E565
     Copy OK

Track  2
     Filename C:\My Music\Gruppo Sportivo - Hey Girl\02 - Hey Girl - Disco really made it.wav

     Peak level 88.0 %
     Track quality 100.0 %
     Test CRC 1A10364A
     Copy CRC 1A10364A
     Copy OK

Track  3
     Filename C:\My Music\Gruppo Sportivo - Hey Girl\03 - Hey Girl - Rock ' roll.wav

     Peak level 88.1 %
     Track quality 100.0 %
     Test CRC 76FC37B5
     Copy CRC 76FC37B5
     Copy OK

Track  4
     Filename C:\My Music\Gruppo Sportivo - Hey Girl\04 - Hey Girl - Sleeping bag.wav

     Peak level 91.1 %
     Track quality 100.0 %
     Test CRC B47E480D
     Copy CRC B47E480D
     Copy OK

Track  5
     Filename C:\My Music\Gruppo Sportivo - Hey Girl\05 - Hey Girl - Beep beep love.wav

     Peak level 88.0 %
     Track quality 100.0 %
     Test CRC 20E0366C
     Copy CRC 20E0366C
     Copy OK

Track  6
     Filename C:\My Music\Gruppo Sportivo - Hey Girl\06 - Hey Girl - Tokyo.wav

     Peak level 75.8 %
     Track quality 100.0 %
     Test CRC DAE275E8
     Copy CRC DAE275E8
     Copy OK

Track  7
     Filename C:\My Music\Gruppo Sportivo - Hey Girl\07 - Hey Girl - I shot my manager.wav

     Peak level 87.9 %
     Track quality 100.0 %
     Test CRC 2ED09DFF
     Copy CRC 2ED09DFF
     Copy OK

Track  8
     Filename C:\My Music\Gruppo Sportivo - Hey Girl\08 - Hey Girl - Superman.wav

     Peak level 68.3 %
     Track quality 99.9 %
     Test CRC 2279FB64
     Copy CRC 2279FB64
     Copy OK

Track  9
     Filename C:\My Music\Gruppo Sportivo - Hey Girl\09 - Hey Girl - Blah blah magazines.wav

     Peak level 89.1 %
     Track quality 100.0 %
     Test CRC D6F8C068
     Copy CRC D6F8C068
     Copy OK

Track 10
     Filename C:\My Music\Gruppo Sportivo - Hey Girl\10 - Hey Girl - Dreamin'.wav

     Peak level 67.6 %
     Track quality 100.0 %
     Test CRC 1345682A
     Copy CRC 1345682A
     Copy OK

Track 11
     Filename C:\My Music\Gruppo Sportivo - Hey Girl\11 - Hey Girl - Bernadette.wav

     Peak level 94.7 %
     Track quality 100.0 %
     Test CRC 7B97D316
     Copy CRC 7B97D316
     Copy OK

Track 12
     Filename C:\My Music\Gruppo Sportivo - Hey Girl\12 - Hey Girl - Real teeth are out.wav

     Peak level 85.5 %
     Track quality 99.9 %
     Test CRC A128B510
     Copy CRC A128B510
     Copy OK

Track 13
     Filename C:\My Music\Gruppo Sportivo - Hey Girl\13 - Hey Girl - The booby-trap boogie.wav

     Peak level 88.4 %
     Track quality 100.0 %
     Test CRC FBE35D87
     Copy CRC FBE35D87
     Copy OK

Track 14
     Filename C:\My Music\Gruppo Sportivo - Hey Girl\14 - Hey Girl - Bottom of the class.wav

     Peak level 89.6 %
     Track quality 99.9 %
     Test CRC F2DD0B3E
     Copy CRC F2DD0B3E
     Copy OK

No errors occured


End of status report

This is an old post. The NZB is no longer kept on our servers. Please check in the new index or try searching on Binsearch.info.