Your Ad Here Your Ad Here
Results 1 to 9 of 9

Thread: Bin But No Cue

  1. #1
    Poster
    Join Date
    Apr 2003
    Location
    Arizona
    Posts
    1,294
    i was wondering if you could make a Cue for a Bin? if so how? i have a bin for a game but no cue.and i tried making an ISO but i got an error then used CDMage to try and fix it but it was an error free file.

  2. Games   -   #2
    Poster
    Join Date
    May 2003
    Posts
    105
    You may have already tried this but if not you might want to check out isobuster. I'm not sure of your goal but you could extract the file, then just copy the files to a new cd. If your goal is to create the cue, I don't know enough about that stuff.

    http://www.smart-projects.net/isobuster/

    Can you post a link for cdimage? It might correct the issue with my MOH Spearhead download.

    Thanks

  3. Games   -   #3
    Poster
    Join Date
    Apr 2003
    Location
    Arizona
    Posts
    1,294

  4. Games   -   #4
    Poster
    Join Date
    May 2003
    Posts
    105
    thanks!

  5. Games   -   #5
    I have only tried Nero to burn bins and it works without needing a cue file too.

    Just choose to burn the .bin image file instead of .cue

  6. Games   -   #6
    Poster
    Join Date
    Apr 2003
    Location
    Arizona
    Posts
    1,294
    i tried but the bin's didn't show up but it doesn't matter now i converted the bin's to ISO's and did it that way.

  7. Games   -   #7
    Poster
    Join Date
    Dec 2002
    Location
    England
    Posts
    2,468
    Originally posted by Pitbul@22 June 2003 - 11:22
    i tried but the bin's didn't show up but it doesn't matter now i converted the bin's to ISO's and did it that way.
    Just make your own .cue by using the text below but put the filename of your .bin between the quotes:

    FILE "NMO.BIN" BINARY
    TRACK 01 MODE1/2352
    INDEX 01 00:00:00

    Then open the .cue with nero and burn as an image.Hope that helps.

  8. Games   -   #8
    The top one didn't work 4 me
    i did
    FILE "C:\Documents and Settings\All Users\Desktop\BLAH.BIN" BINARY
    TRACK 01 MODE1/2352
    INDEX 01 00:00:00
    write this in the the Text Document and when saving, click on "Save as"
    Save it as BLAH.cue
    remember to put .cue at the end

  9. Games   -   #9
    Originally posted by cooolway@22 June 2003 - 12:55
    The top one didn't work 4 me
    i did
    FILE "C:\Documents and Settings\All Users\Desktop\BLAH.BIN" BINARY
    TRACK 01 MODE1/2352
    INDEX 01 00:00:00
    write this in the the Text Document and when saving, click on "Save as"
    Save it as BLAH.cue
    remember to put .cue at the end
    It makes no difference what is written between the parentheses. just as long as your BIN and Cue have the exact same name. you can have

    FILE "kazaaliterules.bin" BINARY
    TRACK 01 MODE1/2352
    INDEX 01 00:00:00

    Just as long as your BIN is also named kazaaliterules, and your BIN will install

Bookmarks

Posting Permissions

  • You may not post new threads
  • You may not post replies
  • You may not post attachments
  • You may not edit your posts
  •