Your Ad Here Your Ad Here
Page 1 of 2 12 LastLast
Results 1 to 10 of 13

Thread: Burning

  1. #1
    I have read the topic above this layout about nero. But it doesn't help me. Lately I downloaded a cd with a .cue file. The .cue file is there because the .mp3 is 1 file of 73 minutes so that you can recored it as several tracks so you can skip them on your cdplayer. But the problem is when I click on the .cue file nero crash I had that with other programs too. So I can't burn the file!
    Is there anyone who can help me?
    Peace.

  2. Software & Hardware   -   #2
    Livy's Avatar Simpleton
    Join Date
    Mar 2003
    Location
    Scotland
    Posts
    3,052
    i think there is a program that splits the file up into seprate tracks, the cue file may be meant for that? cant remember the name, might have been album extractor

  3. Software & Hardware   -   #3
    album wrap i think you mean, Livy?
    <span style='font-size:14pt;line-height:100%'>BLAH</span>

    <span style='font-size:14pt;line-height:100%'>Wayne Rooney - A thug and a thief</span>

  4. Software & Hardware   -   #4
    Livy's Avatar Simpleton
    Join Date
    Mar 2003
    Location
    Scotland
    Posts
    3,052
    that would be it, though aint there a few of them, i never used it b4,

    or aint the full name album wrap extractor

  5. Software & Hardware   -   #5
    What can i do now?

  6. Software & Hardware   -   #6

  7. Software & Hardware   -   #7
    The Cue file looks like this:

    PERFORMER "VA"
    TITLE "Sensation Black Edition"
    FILE "02-va-sensation_black_edition_cd_2-twc.mp3" MP3
    TRACK 01 AUDIO
    TITLE "Total Meltdown"
    PERFORMER "Lava"
    INDEX 01 00:00:00
    TRACK 02 AUDIO
    TITLE "In Control "
    PERFORMER "Luna"
    INDEX 01 01:54:08
    TRACK 03 AUDIO
    TITLE "This is your brain "
    PERFORMER "DJ Jorn"
    INDEX 01 06:19:49
    TRACK 04 AUDIO
    TITLE "Another Sweater "
    PERFORMER "Michel De Hey vs. Secret Cinema"
    INDEX 01 11:29:29
    TRACK 05 AUDIO
    TITLE "Scaramanga "
    PERFORMER "Cortez"
    INDEX 01 15:31:05
    TRACK 06 AUDIO
    TITLE "Funk That "
    PERFORMER "Armani & Ghost"
    INDEX 01 20:05:13
    TRACK 07 AUDIO
    TITLE "Do It Right "
    PERFORMER "Sandra Flyn"
    INDEX 01 22:00:73
    TRACK 08 AUDIO
    TITLE "Sound of the Beast (DJ Zany Mix) "
    PERFORMER "Donkey Rollers"
    INDEX 01 25:26:61
    TRACK 09 AUDIO
    TITLE "Here&#39;s Johnny "
    PERFORMER "Deepack"
    INDEX 01 30:26:50
    TRACK 10 AUDIO
    TITLE "Better "
    PERFORMER "Ultra Tech"
    INDEX 01 33:32:19
    TRACK 11 AUDIO
    TITLE "Go Go Go "
    PERFORMER "Julian DJ & Davide Sonar"
    INDEX 01 37:19:35
    TRACK 12 AUDIO
    TITLE "30 Minutes (Luna, Trilok & Chirens&#39;s Max. Force Mix "
    PERFORMER "DHHD"
    INDEX 01 41:18:39
    TRACK 13 AUDIO
    TITLE "You Break Me Down (Running Mix) "
    PERFORMER "Space Invaders"
    INDEX 01 46:28:31
    TRACK 14 AUDIO
    TITLE "Ti Ta Tnt "
    PERFORMER "TNT"
    INDEX 01 50:59:42
    TRACK 15 AUDIO
    TITLE "Distorted Soul (Mass in Orbit Mix) "
    PERFORMER "Mayhem"
    INDEX 01 57:05:07
    TRACK 16 AUDIO
    TITLE "To Be As One "
    PERFORMER "Temper Temper"
    INDEX 01 61:43:03
    TRACK 17 AUDIO
    TITLE "Al Chemist "
    PERFORMER "Mauro Picotto"
    INDEX 01 65:59:08
    TRACK 18 AUDIO
    TITLE "Hell Fire "
    PERFORMER "Inferno"
    INDEX 01 70:54:72

  8. Software & Hardware   -   #8
    BANNED
    Join Date
    May 2003
    Posts
    5,605
    oops sory delete

  9. Software & Hardware   -   #9
    For albumwrapper you need a albumwrapper file not a .cue or .mp3 file it can&#39;t open it. And what sould I do then because my cue file is good tough?

  10. Software & Hardware   -   #10
    BANNED
    Join Date
    May 2003
    Posts
    5,605
    Originally posted by Corleone@13 September 2003 - 09:05
    For albumwrapper you need a albumwrapper file not a .cue or .mp3 file it can&#39;t open it. And what sould I do then because my cue file is good tough?
    you need the bin for it, have you tried searching for the bin??

Page 1 of 2 12 LastLast

Bookmarks

Posting Permissions

  • You may not post new threads
  • You may not post replies
  • You may not post attachments
  • You may not edit your posts
  •