Your Ad Here Your Ad Here
Results 1 to 7 of 7

Thread: Brother Bear Cd2

  1. #1
    Just finished d/l the above mentioned film (screener)
    and I've burned cd1 ok but when I try and burn cd2 it just says that a line in .cue files 0:6:56 is too big (or something) and it won't burn!!

    Doe's anyone know a way round using a .cue file?
    Or does anyone know how to make a .cue file? Because there a mystery to me!


    Cheers!

  2. Movies & TV   -   #2
    Retired
    Join Date
    Feb 2003
    Posts
    14,058
    in notepad:

    FILE "image-name.BIN" BINARY
    TRACK 01 MODE1/2352
    INDEX 01 00:00:00

    save as .CUE
    --------------

    You can use VCDgear to extract the movie out of the .Bin so you dont have to burn it

  3. Movies & TV   -   #3
    Originally posted by {I}{K}{E}@9 December 2003 - 20:28
    in notepad:

    FILE "image-name.BIN" BINARY
    TRACK 01 MODE1/2352
    INDEX 01 00:00:00

    save as .CUE
    --------------

    You can use VCDgear to extract the movie out of the .Bin so you dont have to burn it
    Cheers!! is that all I have to do?
    could'nt I just Edit the one that doe'snt work to say that?

  4. Movies & TV   -   #4
    Originally posted by {I}{K}{E}@9 December 2003 - 20:28
    in notepad:

    FILE "image-name.BIN" BINARY
    TRACK 01 MODE1/2352
    INDEX 01 00:00:00

    save as .CUE
    --------------

    You can use VCDgear to extract the movie out of the .Bin so you dont have to burn it
    Tried that and it did'nt work unfortunatley for moi!!!!

  5. Movies & TV   -   #5
    muchspl2
    Guest
    beacuse you didn't do it right
    image-name.BIN = the name of the image
    look at the other cue and just change it to cd2 or whatever the name of it is

  6. Movies & TV   -   #6
    Originally posted by muchspl2@9 December 2003 - 21:22
    beacuse you didn't do it right
    image-name.BIN = the name of the image
    look at the other cue and just change it to cd2 or whatever the name of it is
    Yeah VERY SORRY!
    you 2 did it again and it worked!! my mistake!!

    Thanks for help!!!!


  7. Movies & TV   -   #7
    Retired
    Join Date
    Feb 2003
    Posts
    14,058
    Originally posted by BILLY-THE-FISH@9 December 2003 - 21:53
    Thanks for help!!!!

    No problemo

Bookmarks

Posting Permissions

  • You may not post new threads
  • You may not post replies
  • You may not post attachments
  • You may not edit your posts
  •