Your Ad Here Your Ad Here
Results 1 to 3 of 3

Thread: Need Help With Cues

  1. #1
    i want to burn Mafia to CD and the cues are weird.

    this is CD1
    FILE "C:\Documents and Settings\Ray Fackelman\My Documents\Mafia Rip 1\CD1" BINARY


    REM SESSION 01 ; Not supported by other applications (*)
    TRACK 01 MODE1/2352
    INDEX 01 00:00:00
    REM MSF: 00:00:00 = LBA: 0

    REM (*) SESSION directives are unfortunately not properly supported
    REM 'out there'. IsoBuster however supports them !

    CD2
    FILE "C:\Documents and Settings\Ray Fackelman\My Documents\Mafia Rip 1\CD2" BINARY


    REM SESSION 01 ; Not supported by other applications (*)
    TRACK 01 MODE1/2352
    INDEX 01 00:00:00
    REM MSF: 00:00:00 = LBA: 0

    REM (*) SESSION directives are unfortunately not properly supported
    REM 'out there'. IsoBuster however supports them !

    CD3
    FILE "C:\Documents and Settings\Ray Fackelman\My Documents\Mafia Rip 1\CD3" BINARY


    REM SESSION 01 ; Not supported by other applications (*)
    TRACK 01 MODE1/2352
    INDEX 01 00:00:00
    REM MSF: 00:00:00 = LBA: 0

    REM (*) SESSION directives are unfortunately not properly supported
    REM 'out there'. IsoBuster however supports them !

    when i try to burn it with nero it says cannot open
    C:\Documents and Settings\Ray Fackelman\My Documents\Mafia Rip 1\CD1

  2. Software & Hardware   -   #2
    I personally have never seen a cue file that doesn't look like:


    FILE "PUT EXACT FILE NAME HERE.BIN" BINARY
    TRACK 01 MODE1/2352
    INDEX 01 00:00:00

    and saved as a cue file. You could just try copying the exact text above into notepad and save the file as a .cue file,(change the filename to what your filename is and save the cue in the same directory as the bin).

    Or maybe the .bin file actually needs all that stuff in those strange cue files in which case just change the filenames in the cue files to the names of the files you have and save the resulting cue files in the same directory as the .bin files.

    i.e. just change
    "C:\Documents and Settings\Ray Fackelman\My Documents\Mafia Rip 1\CD1"
    to
    "CD1.bin"

    (if the file is called CD1.bin) and move the cues to the same directory as the bin files.

  3. Software & Hardware   -   #3
    what if there is no BIN that came with the download, here are the files

    CD1 (756 MB)
    CD1.cue
    CD2 (790 MB)
    CD2.cue
    CD3 (791 MB)
    CD3.cue

    can i rename CD1 to CD1.bin and change the cue then burn it

Bookmarks

Posting Permissions

  • You may not post new threads
  • You may not post replies
  • You may not post attachments
  • You may not edit your posts
  •