Your Ad Here Your Ad Here
Results 1 to 4 of 4

Thread: How Do You Make A Cue For Svcd?

  1. #1
    Monkeee's Avatar Post Whore
    Join Date
    Sep 2003
    Posts
    3,453
    or are they all the same

    FILE "image-name.BIN" BINARY
    TRACK 01 MODE1/2352
    INDEX 01 00:00:00

    ???

  2. Movies & TV   -   #2
    Retired
    Join Date
    Feb 2003
    Posts
    14,058
    Originally posted by Monkeee@22 June 2004 - 23:04
    or are they all the same

    FILE "image-name.BIN" BINARY
    TRACK 01 MODE1/2352
    INDEX 01 00:00:00

    ???
    is the file you have a bin or an mpg?

  3. Movies & TV   -   #3
    Monkeee's Avatar Post Whore
    Join Date
    Sep 2003
    Posts
    3,453
    Bin

  4. Movies & TV   -   #4
    Retired
    Join Date
    Feb 2003
    Posts
    14,058
    yup use:


    FILE “xxx.bin” BINARY
    TRACK 01 MODE1/2048
    INDEX 01 00:00:00

Bookmarks

Posting Permissions

  • You may not post new threads
  • You may not post replies
  • You may not post attachments
  • You may not edit your posts
  •