Your Ad Here Your Ad Here
Results 1 to 3 of 3

Thread: Splitting Mp3s With Cue File

  1. #1
    Does anybody know which program will read this CUE file and split the MP3 up? I have tried MP3 splitter and joiner and it doesnt read the CUE file at all. Could someone plz point me in the right direction as to what program to use and where to get it from

    PERFORMER "DJ Tiesto"
    TITLE "In Concert-DVDA"
    FILE "01-va-tiesto_in_concert-dvda-2003-mim.mp3" MP3
      TRACK 01 AUDIO
        TITLE "Magik Journey (Intro)"
        PERFORMER "Tiesto"
        INDEX 01 00:00:00
      TRACK 02 AUDIO
        TITLE "Adagio For Strings"
        PERFORMER "Tiesto"
        INDEX 01 02:08:80
      TRACK 03 AUDIO
        TITLE "Who's The Starter"
        PERFORMER "Ernesto vs. Bastian"
        INDEX 01 09:32:95
      TRACK 04 AUDIO
        TITLE "Faithfulness (Tiesto Remix)"
        PERFORMER "Skin"
        INDEX 01 15:08:27
      TRACK 05 AUDIO
        TITLE "Beautiful Things (Gabriel & Dresden Unplugged Mix)"
        PERFORMER "Andain Featuring Mavie Marcos"
        INDEX 01 21:00:00
      TRACK 06 AUDIO
        TITLE "Samba In The Hood"
        PERFORMER "Brotherhood"
        INDEX 01 29:24:01
      TRACK 07 AUDIO
        TITLE "Carnival"
        PERFORMER "Cave"
        INDEX 01 31:55:80
      TRACK 08 AUDIO
        TITLE "Never (Filterheadz Luv Tina Remix)"
        PERFORMER "Roc Project Featuring Tina Arena"
        INDEX 01 32:24:89
      TRACK 09 AUDIO
        TITLE "Answers"
        PERFORMER "David Forbes"
        INDEX 01 37:57:99
      TRACK 10 AUDIO
        TITLE "Naranja (Dimitri Andreas Vision)"
        PERFORMER "Mojado Featuring Mr. Sam"
        INDEX 01 44:49:76
      TRACK 11 AUDIO
        TITLE "Eugina (Michael Woods Remix)"
        PERFORMER "Salt Tank"
        INDEX 01 48:19:87
      TRACK 12 AUDIO
        TITLE "Rain Down On Me (Tiesto Remix)(Featuring Dinland Woesthoff)"
        PERFORMER "Kane"
        INDEX 01 51:18:59
      TRACK 13 AUDIO
        TITLE "The Star Spangled Banner"
        PERFORMER "Traditional"
        INDEX 01 58:57:88
      TRACK 14 AUDIO
        TITLE "Eternal Voice (Tiesti Alternative Breaks Mix)"
        PERFORMER "Hampshire & Nysse Present Nikita"
        INDEX 01 59:56:33
      TRACK 15 AUDIO
        TITLE "3rd Earth"
        PERFORMER "Scott Bond vs. Solarstone"
        INDEX 01 65:28:44
      TRACK 16 AUDIO
        TITLE "Symbols"
        PERFORMER "Fictivision vs. C-Quence"
        INDEX 01 72:43:06
      TRACK 17 AUDIO
        TITLE "Crown"
        PERFORMER "Max Walder"
        INDEX 01 78:27:35
      TRACK 18 AUDIO
        TITLE "Understatement"
        PERFORMER "F. Massif"
        INDEX 01 83:54:49
      TRACK 19 AUDIO
        TITLE "Tears From The Moon (Tiesto Remix)"
        PERFORMER "Conjure One"
        INDEX 01 89:00:95
      TRACK 20 AUDIO
        TITLE "Traffic"
        PERFORMER "Tiesto"
        INDEX 01 95:16:16
      TRACK 21 AUDIO
        TITLE "Tiesto In Concert Asia"
        PERFORMER "Orange Studio's"
        INDEX 01 100:39:02
      TRACK 22 AUDIO
        TITLE "Searching (Coast 2 Coast Mix)"
        PERFORMER "Coast 2 Coast"
        INDEX 01 107:05:73
      TRACK 23 AUDIO
        TITLE "Urban Shakedown"
        PERFORMER "Solar Factor"
        INDEX 01 109:13:63
      TRACK 24 AUDIO
        TITLE "Skydive (Featuring Jan Johnston)"
        PERFORMER "Freefall"
        INDEX 01 113:16:16
      TRACK 25 AUDIO
        TITLE "Collabs 200: Snacker"
        PERFORMER "Literon / Speedy J"
        INDEX 01 120:42:47
      TRACK 26 AUDIO
        TITLE "Lethal Industry"
        PERFORMER "Tiesto"
        INDEX 01 124:33:88
      TRACK 27 AUDIO
        TITLE "Rush"
        PERFORMER "Mark Norman"
        INDEX 01 129:36:24
      TRACK 28 AUDIO
        TITLE "Dimel / Koode Nyaari"
        PERFORMER "Omar Ka & Fula Band"
        INDEX 01 135:59:37
      TRACK 29 AUDIO
        TITLE "Theme From Norefjell (DJ Jan & Christophe Chantiz Mix)"
        PERFORMER "Tiesto"
        INDEX 01 140:05:25
      TRACK 30 AUDIO
        TITLE "Candesco"
        PERFORMER "Riley & Durraht"
        INDEX 01 145:14:19
      TRACK 31 AUDIO
        TITLE "Nyana"
        PERFORMER "Tiesto"
        INDEX 01 152:27:70
      TRACK 32 AUDIO
        TITLE "The Legacy (Alphazone Remix)"
        PERFORMER "Saltwater"
        INDEX 01 157:48:60
      TRACK 33 AUDIO
        TITLE "Electric Malfunction"
        PERFORMER "DJ Ton T.B."
        INDEX 01 165:22:76
      TRACK 34 AUDIO
        TITLE "Flight 643"
        PERFORMER "Tiesto"
        INDEX 01 173:31:56
      TRACK 35 AUDIO
        TITLE "Airport"
        PERFORMER "Armani & Ghost"
        INDEX 01 179:59:03
      TRACK 36 AUDIO
        TITLE "Didjerrydoo"
        PERFORMER "DJ Jonge & Beijerinck"
        INDEX 01 182:51:43
      TRACK 37 AUDIO
        TITLE "Obsession (Frank Biazzi Mix)"
        PERFORMER "Tiesto vs. Junky XL"
        INDEX 01 184:40:03
      TRACK 38 AUDIO
        TITLE "Man On Mars"
        PERFORMER "Ralph Fridge"
        INDEX 01 187:17:38
      TRACK 39 AUDIO
        TITLE "Suburbain Train"
        PERFORMER "Tiesto"
        INDEX 01 192:44:93
      TRACK 40 AUDIO
        TITLE "No Regular"
        PERFORMER "No Regular"
        INDEX 01 203:39:48

  2. Music   -   #2
    sparsely's Avatar
    Join Date
    Dec 2002
    Location
    static hum
    Posts
    3,538
    EAC

    this post is guaranteed 100% parrot-free

  3. Music   -   #3
    Originally posted by Sparsely@8 August 2004 - 13:35
    EAC
    Only splits WAV files with CUE sheets. What I wanna do is split an MP3 fille into seperate MP3s with the CUE sheet. Dont wanna burn it to cd just MP3

Bookmarks

Posting Permissions

  • You may not post new threads
  • You may not post replies
  • You may not post attachments
  • You may not edit your posts
  •